Statistics Tags Issue       : mkvmerge v10.0.0 ('To Drown In You') 64bit 2017-08-08 19:10:12 / mkvmerge v10.0.0 ('To Drown In You') 64bit 2017-08-08 19:10:12 / UTC 2017-08-06T01:05:13Z Encoded date                : UTC 2017-08-08 19:10:12 / UTC 2017-08-06T01:05:13Z Color space                 : YUV My friends I recommended it to also enjoyed it. Eventful Movies is your source for up-to-date Cómo ser un Latin Lover information, showtimes, trailers, photos, and cast information. 2011/03/16. Format/Info                 : Audio Coding 3 Porque ser un verdadero Latin Lover no es cosa fácil...aprende a #CómoSerUnLarinLover con el soundtrack oficial de la película. s_medPG13 PG-13 (Parents Strongly Cautioned), Reviewed in the United States on March 14, 2018, Reviewed in the United States on November 10, 2018. Language                    : Spanish Your recently viewed items and featured recommendations, Select the department you want to search in. FromStats_StreamSize        : 7938, Text #3 Display aspect ratio        : 16:9 Top subscription boxes – right to your door, © 1996-2020, Amazon.com, Inc. or its affiliates. 3,7 k mentions J’aime. Format settings, Endianness : Big Sampling rate               : 48.0 kHz Forced                      : No Frame rate mode             : Constant Codec ID                    : S_TEXT/UTF8 Format version              : Version 4 / Version 2 Movie name                  : DPeliculasHDMega.ORG Stream size                 : 371 MiB (5%) Cómo ser un Latin Bonita 2020. Codec ID/Info               : UTF-8 Plain Text 01:03:41.901                : :Chapter 8 No puedo descargar ninguna pelicula, en el protector de enlaces le doy al boton » Haz click aqui», no me sale ningún anuncio para esperar los 30 segundos, solamente abre una pagina acerca de mascotas. Title                       : Surround FromStats_FrameCount        : 216870 How to Be a Latin Lover (2017) Full 1080p Latino.mkv Veinticinco años después, harto.. Pelisplus.me Duration                    : 1 h 55 min FromStats_FrameCount        : 6 Color primaries             : BT.709 FromStats_BitRate           : 9 Default                     : No 00:07:24.527                : :Chapter 2 ( Log Out /  Compression mode            : Lossy Prime members enjoy FREE Delivery and exclusive access to music, movies, TV shows, original audio series, and Kindle books. Bit depth                   : 16 bits Duration                    : 1 h 55 min Overall bit rate            : 8 224 kb/s Veinticinco años después, harto y aburrido de despertar junto a su esposa de 80 años, recibe la sorpresa de su vida cuando ella termina abandonándolo. Statistics Tags Issue       : mkvmerge v10.0.0 ('To Drown In You') 64bit 2017-08-08 19:10:12 / mkvmerge v10.0.0 ('To Drown In You') 64bit 2017-08-08 19:10:12 / UTC 2017-08-06T01:05:13Z 00:35:51.733                : :Chapter 5 Channel positions           : Front: L C R, Side: L R, LFE Mirar peliculas en HD nunca habia sido tan facil, sin extensiones y sin pagar!!!! After viewing product detail pages, look here to find an easy way to navigate back to pages you are interested in. Este sitio no hospeda ningún archivo en su servidor. ID                          : 3 Ver Pelicula Cómo ser un Latin Lover Online. Format                      : UTF-8 Default                     : No Statistics Tags Issue       : mkvmerge v10.0.0 ('To Drown In You') 64bit 2017-08-08 19:10:12 / mkvmerge v10.0.0 ('To Drown In You') 64bit 2017-08-08 19:10:12 / UTC 2017-08-06T01:05:13Z Format/Info                 : Audio Coding 3 It also analyzes reviews to verify trustworthiness. Bit rate mode               : Constant Se basa en la primera parte de Tormenta... hola saludos una duda, los enlaces son intercambiables? Cómo ser un latin loverEspecificacionesTitulo: Cómo ser un latin loverTamaño del Archivo: 1.14 GBAudio: Español LatinoDescarga: Descargar Cómo ser un latin loversinopsisUn hombre especializado en la seducción de ancianas millonarias es echado después de 25 años de matrimonio y debe mudarse con su hermana, donde comienza a aprender el valor de la familia.Opción 1 … Cómo Ser Un Latín Lover y No Se Aceptan Devoluciones. The Text Widget allows you to add text or HTML to your sidebar. ahi le ayudaremos de una forma rapida. escribanos a la fanpage de cinemanaihd. Format settings, CABAC      : Yes 3.6 out of 5 stars 3 ratings. Sampling rate               : 48.0 kHz Codec ID                    : S_TEXT/UTF8 Format                      : UTF-8 Statistics Tags Issue       : mkvmerge v10.0.0 ('To Drown In You') 64bit 2017-08-08 19:10:12 / mkvmerge v10.0.0 ('To Drown In You') 64bit 2017-08-08 19:10:12 / UTC 2017-08-06T01:05:13Z ID                          : 1 Codec ID/Info               : UTF-8 Plain Text Frame rate                  : 23.976 (24000/1001) FPS Stream size                 : 5.79 GiB (87%) Default                     : No FromStats_BitRate           : 9228 Transfer characteristics    : BT.709 dpeliculashdmega@gmail.com. Forced                      : No ( Log Out /  Statistics Tags Issue       : mkvmerge v10.0.0 ('To Drown In You') 64bit 2017-08-08 19:10:12 / mkvmerge v10.0.0 ('To Drown In You') 64bit 2017-08-08 19:10:12 / UTC 2017-08-06T01:05:13Z FromStats_Duration          : 01:55:41.393000000 2017. FromStats_StreamSize        : 388631040, Audio #2 ID                          : 2 ( Log Out /  ID                          : 7 Codec ID                    : S_TEXT/UTF8 Ahora puedes descargar peliculas por los mejores servidores gratis, incluyendo mega hd, podrás disfrutar de las películas hd eso no es todo, lo importante en hd full con opción de películas 1 link mega, Descargar Cómo ser un latin lover (2017) Full 1080p Latino, Juego De Tronos (2017) Temporada 7 Full 1080p Latino, Juego de Tronos (2016) Temporada 6 Full 1080p Latino, Juegos de Tronos (2015) Temporada 5 Full 1080p Latino, Juego de Tronos (2014) Temporada 4 Full 1080p Latino, Juego de Tronos (2013) Temporada 3 Full 1080p Latino, Juego De Tronos (2011) Temporada 1 Full 1080p Latino, Dragon Ball Z- Broly – Second Coming (1994) REMUX 1080p Latino – CMHDD, Dragon Ball Z (1989-1996) Serie Completa 1080p Latino – CMHDD. 1h 0m To calculate the overall star rating and percentage breakdown by star, we don’t use a simple average. Please try again. Copyright © Re PelisPlus.Biz Todos los derechos reservados. Color range                 : Limited FromStats_Duration          : 01:55:39.840000000 $24.54 — Special offers and product promotions. 60 Min Seguirme en Instagram https://www.instagram.com/p/CGBPAfsjMIp/?igshid=ozpbu4lhog90. Channel(s)                  : 6 channels Writing library             : x264 core 148 r2708 86b7198 Blu-ray $24.54 DVD $29.99 Additional Blu-ray options: Edition Discs Price New from Used from Blu-ray "Please retry" — — $24.54 . Frame rate                  : 31.250 FPS (1536 spf) We and our partners use cookies to personalize your experience, to show you ads based on your interests, and for measurement and analytics purposes. Ahora, solo y sin nadie que le mantenga, se ve obligado a irse a vivir con su hermana – con quien tiene una relación complicada – y con el hijo de ésta. Forced                      : No Cinéma FromStats_BitRate           : 25 Ver Cómo ser un Latin Lover en Español Latino. Forced out of his mansion, he must now move in with his estranged sister Sara and her nerdy but adorable son Hugo. Channel positions           : Front: L C R, Side: L R, LFE FromStats_BitRate           : 7317627 Para ser usuario de nuestra web y aprovechar todas nuestras funciones solo necesitas loguearte mediante facebook =). Codec ID                    : A_AC3 Format settings, Endianness : Big Format profile              : High@L4.1 Cómo Ser un Latin Lover. Descargar gratis Juego de Tronos (2016) Temporada 6 Full Latino No seguirán subiendo a mega? 00:44:59.280                : :Chapter 6 Default                     : No How To Be a Latin Lover es una comedia dirigida por Ken Marino (Childrens Hospital) y escrita por los guionistas Chris Spain y Jon Zack (La puntuación perfecta). Duration                    : 1 h 55 min 60 Min. Todos el contenido son proporcionados por terceras partes las cuales no estan afiliadas. En la imagen aparece que viene un combo de 2 películas, sin embargo solo me llegó la de Cómo ser un latin lover y sin slipcover. FromStats_Duration          : 01:55:39.840000000 60 Min. Service kind                : Complete Main Change ), You are commenting using your Twitter account. Language                    : Spanish There was an error retrieving your Wish Lists. Duration                    : 1 h 55 min Trailer Máximo, un gigoló especializado en la seducción de mujeres ancianas ricas, se casa con una mujer que le dobla en edad. File size                   : 6.65 GiB ID                          : 5 Acostumbrado a una vida en la que se dedicaba a seducir a mujeres ricas de avanzada edad para poder vivir a lo grande, ahora tendrá que aprender el verdadero valor de la familia y ser algo más humilde. Enjoy the videos and music you love, upload original content, and share it all with friends, family, and the world on YouTube. Bit depth                   : 16 bits Codec ID/Info               : UTF-8 Plain Text 01:17:53.752                : :Chapter 9 FromStats_StreamSize        : 49121, Text #4 Repelis + FromStats_Duration          : 00:00:51.236000000 Máximo, un gigoló especializado en la seducción de mujeres ancianas ricas, se casa con una mujer que le dobla en edad. ID                          : 6 Según era un pack con dos películas. ID                          : 4 00:27:20.222                : :Chapter 4 Frame rate                  : 31.250 FPS (1536 spf) no se le puede quitar, la empresa q los quita no filtrado. Title                       : Surround Veinticinco años después, harto y aburrido de despertar junto a su esposa de 80 años, recibe la sorpresa de su vida cuando ella termina abandonándolo. Format                      : UTF-8 Statistics Tags Issue       : mkvmerge v10.0.0 ('To Drown In You') 64bit 2017-08-08 19:10:12 / mkvmerge v10.0.0 ('To Drown In You') 64bit 2017-08-08 19:10:12 / UTC 2017-08-06T01:05:13Z Format                      : AVC 01:33:59.717                : :Chapter 11 There's a problem loading this menu right now. Forzado a salir de su mansión y buscando desesperadamente dónde quedarse, deberá mudarse con su distante hermana Sara y su adorable hijo nerd Hugo, en su pequeño departamento. FromStats_StreamSize        : 7544945, Text #2 Language                    : Spanish especializado en la seducción de ancianas millonarias es echado después de 25 años de matrimonio y debe mudarse con su hermana, donde comienza a aprender el valor de la familia. Default                     : Yes By using our website and our services, you agree to our use of cookies as described in our Cookie Policy. Eugenio Derbez, Por favor ayudanos a identificar el problema de la película. Service kind                : Complete Main RepelisPlus, Página web para ver y descargar películas. FromStats_FrameCount        : 166427 Statistics Tags Issue       : mkvmerge v10.0.0 ('To Drown In You') 64bit 2017-08-08 19:10:12 / mkvmerge v10.0.0 ('To Drown In You') 64bit 2017-08-08 19:10:12 / UTC 2017-08-06T01:05:13Z COMO SER UN LATIN LOVER & NO SE ACEPTAN DEVOLUCIONES 2 BLU-RAYS LATIN AMERICAN IMPORT. Bits/(Pixel*Frame)          : 0.144 Juego de Tronos es una serie de televisión de drama y fantasía creada para la HBO por David Benioff... 5.0 Change ), You are commenting using your Google account. Descargar gratis Juego de Tronos (2014) Temporada 4 Full Latino. Codec ID                    : S_HDMV/PGS 2011/03/17. Forced                      : No Fill in your details below or click an icon to log in: You are commenting using your WordPress.com account. 2011/03/16. Format                      : Matroska Stream size                 : 371 MiB (5%) Width                       : 1 920 pixels Format                      : PGS Matrix coefficients         : BT.709 Instead, our system considers things like how recent a review is and if the reviewer bought the item on Amazon. Delay relative to video     : 1 s 584 ms Height                      : 1 080 pixels Forced                      : No 01:27:53.351                : :Chapter 10 FromStats_BitRate           : 60 How To Be a Latin Lover es una comedia dirigida por Ken Marino (Childrens Hospital) y escrita por los guionistas Chris Spain y Jon Zack (La puntuación perfecta). FromStats_BitRate           : 448000 Entretenida película. Please try again. FromStats_FrameCount        : 1531 Después de veinticinco años de matrimonio, Máximo es un gigoló que acaba de romper con su pareja. FromStats_FrameCount        : 216870 Bit depth                   : 8 bits Chroma subsampling          : 4:2:0 Cuenta además con un reparto formado por el mexicano Eugenio Derbez (El libro de la vida, Los milagros del cielo), Michael Cera (A Very Murray Christmas), Rob Lowe (Parks and Recreation), Kristen Bell (Es la jefa), Raquel Welch (Una rubia muy legal), Rob Riggle (Absolutamente todo), Renée Taylor (Temptation: Confessions of a Marriage Counselor) y Linda Lavin (El becario), entre otros. FromStats_Duration          : 01:49:04.347000000 Writing application         : mkvmerge v10.0.0 ('To Drown In You') 64bit FromStats_StreamSize        : 164, Menu Writing library             : libebml v1.3.4 + libmatroska v1.4.5 / Lavf57.7.2, Video Delay relative to video     : 1 s 584 ms Que raíos :v me acabo de comprar cuenta en mega para poder bajar y no está. Codec ID                    : A_AC3 We don’t share your credit card details with third-party sellers, and we don’t sell your information to others. La Cuarta Temporada se basa mayormente... 4.2 Maximo gets the surprise of his life when his wealthy, 80-year-old wife dumps him for a younger car salesman. Change ), This is a text widget. Change ), You are commenting using your Facebook account. FromStats_FrameCount        : 272 Sinopsis capitulo 1: Jon Nieve está... Descargar gratis Juegos de Tronos (2015) Temporada 5 Full Latino  Encoding settings           : cabac=1 / ref=4 / deblock=1:0:0 / analyse=0x3:0x133 / me=esa / subme=10 / psy=1 / psy_rd=1.00:0.00 / mixed_ref=1 / me_range=24 / chroma_me=1 / trellis=2 / 8x8dct=1 / cqm=0 / deadzone=21,11 / fast_pskip=1 / chroma_qp_offset=-2 / threads=12 / lookahead_threads=2 / sliced_threads=0 / nr=0 / decimate=1 / interlaced=0 / bluray_compat=0 / constrained_intra=0 / bframes=8 / b_pyramid=2 / b_adapt=2 / b_bias=0 / direct=3 / weightb=1 / open_gop=0 / weightp=2 / keyint=240 / keyint_min=24 / scenecut=40 / intra_refresh=0 / rc_lookahead=60 / rc=crf / mbtree=1 / crf=20.0 / qcomp=0.60 / qpmin=0 / qpmax=69 / qpstep=4 / vbv_maxrate=62500 / vbv_bufsize=78125 / crf_max=0.0 / nal_hrd=none / filler=0 / ip_ratio=1.40 / aq=1:1.00 FromStats_StreamSize        : 388631040, Text #1 FromStats_BitRate           : 448000 Unable to add item to List. I've seen it twice and loved it just as much the second time. 00:53:30.290                : :Chapter 7 Edit them in the Widget section of the. Find the best information and most relevant links on all topics related toThis domain may be for sale! La imagen publicada no corresponde con el artículo recibido. Sinopsis captitulo 1: La reina Cersei... 4.5 Stream CÓMO SER UN LATIN LOVER by marthadebayle from desktop or your mobile device FromStats_FrameCount        : 2636 Codec ID                    : V_MPEG4/ISO/AVC Scan type                   : Progressive 01:43:47.805                : :Chapter 12. https://streamango.com/embed/lombcadsnmnonokl/. Format/Info                 : Advanced Video Codec Película Cómo Ser un Latin Lover (How to Be a Latin Lover): Máximo, un gigoló especializado en la seducción de mujeres ancianas ricas, se casa con una mujer que le dobla en edad. Language                    : Spanish Bit rate                    : 448 kb/s Muxing mode                 : zlib ( Log Out /  Default                     : Yes Default                     : Yes Format                      : AC-3 Channel(s)                  : 6 channels Language                    : English Descargar Pelicula Cómo ser un Latin Lover Gratis Cómo ser un Latin Lover. Forced                      : No FromStats_StreamSize        : 6349316422, Audio #1 ;). Our payment security system encrypts your information during transmission. Bit rate                    : 7 165 kb/s Format                      : AC-3 COMO SER UN LATIN LOVER & NO SE ACEPTAN DEVOLUCIONES 2 BLU-RAYS LATIN AMERICAN IMPORT EUGENIO DERBEZ (Actor), SALMA HAYEK (Actor) Rated: PG-13. Compression mode            : Lossy Codec ID/Info               : Picture based subtitle format used on BDs/HD-DVDs FromStats_Duration          : 01:49:00.785000000 00:00:00.083                : :Chapter 1 00:17:20.623                : :Chapter 3 Descargar gratis Juego de Tronos (2013) Temporada 3 Full Latino. Format settings, ReFrames   : 4 frames Title                       : FORZADOS Format: Blu-ray. FromStats_Duration          : 01:52:35.343000000 4.3 You can use a text widget to display text, links, images, HTML, or a combination of these. Bit rate                    : 448 kb/s Actor: Bit rate mode               : Constant Muchas gracias por el aporte Saludos, fue agregado, mega agrego unos minutos despues, ya q es una tortuga con anemia para la subida, Muchas gracias amigo eso si es cierto :3, {"handle":"cinemaniahdd","arch":"js","styles":{"a":"000066","b":100,"c":"FFFFFF","d":"FFFFFF","k":"000066","l":"000066","m":"000066","n":"FFFFFF","p":"10.62","q":"000066","r":100,"cnrs":"0.31","fwtickm":1}}, CINEMANIAHD NO ALMACENA NINGUN TIPO MATERIAL con derechos de autor, el material es recolectado de todas fuentes de Internet, Si desea que dicho material sea borrado porfavor contactarnos por email Pero sólo recibí la primera. We work hard to protect your security and privacy. Language                    : English Forced                      : No Amazon …